ดาวน์โหลด Little.Black.Dress.2011.720p.HDR.HDiND[New-Encode] (~nusom~).mkv_24hr.torrent

ใช้โปรแกรม uTorrent หรือ BitComet 0.70 เท่านั้น หากใช้เวอร์ชั่นอื่น ท่านจะไม่ได้ค่าอัพโหลด
Info hash77badb7451679a16791a4f106bf89631c2a814ac
Advertising....สมทบทุนช่วยเว็บ ตั้งแต่ 150 บาท ขึ้นไป ได้รับอายุ VIP X2 .... สนใจสมัครคลิ้ก
Picturehttp://img.ihere.org/uploads/15686eeb28.jpg
Description
[เกาหลี]-[นำแสดงโดย Yoon Eun-Hye , Park Han-Byul , Cha Ye-Ryeon , Yoo In-Na] LITTLE BLACK DRESS (2011) สี่สาวจอมกรี๊ด จี๊ดจ๊าดหลุดโลก [720p.BluRay.x264]-[Modified]-[พากย์ไทย][เสียงไทยจากวีซีดีมาสเตอร์]


                   


“ชุดเดรสสั้นสีดำ” คือ สัญลักษณ์ของความเรียบง่ายแต่โฉบเฉี่ยวของสาวยุคใหม่ นี่คือเรื่องราวที่สะท้อนความงดงาม แห่งมิตรภาพของสี่สาวทันสมัยวัย 24 ที่เรียนภาพยนตร์มาด้วยกันจนจบมหาวิทยาลัย ก้าวแรกที่พวกเธอพ้นจากรั้วมหาวิทยาลัย นับเป็นอีกหนึ่งแชปเตอร์สำคัญของชีวิต ทั้งสี่สาวต่างแยกย้ายกันไปตามทางที่ตัวเองเลือก บางคนมีเป้าหมาย และบางคนยังไม่แน่ใจในสิ่งที่เลือก ชีวิตของพวกเธอเต็มไปด้วยความหวัง และอาจถูกแต่งแต้มสีสันด้วยความรู้สึกขัดแย้งเล็ก ๆ ระหว่างกัน แต่สิ่งที่ไม่เปลี่ยนก็คือมิตรภาพที่ไม่เคยจืดจาง ระหว่างเพื่อนรักที่พร้อมจะเติบโตและเรียนรู้ถูกผิดไปพร้อม ๆ กัน


General
Unique ID                        : 241747183038276866612527131443939712421 (0xB5DED05A56DAC2AFA0A6CC066A471DA5)
Complete name                    : S ToNLittle.Black.Dress.2011.720p.HDR.HDiND[New-Encode] (~nusom~).mkv
Format                           : Matroska
File size                        : 3.34 GiB
Duration                         : 1h 47mn
Overall bit rate                 : 4 436 Kbps
Encoded date                     : UTC 2012-08-27 06:43:56
Writing application              : mkvmerge v3.4.0 ( Rapunzel ) built on May 15 2010 09:38:20
Writing library                  : libebml v0.8.0 + libmatroska v0.9.0

Video
ID                               : 1
Format                           : AVC
Format/Info                      : Advanced Video Codec
Format profile                   : [email protected]
Format settings   ,    CABAC           : Yes
Format settings   ,    ReFrames        : 3 frames
Codec ID                         : V_MPEG4/ISO/AVC
Duration                         : 1h 47mn
Bit rate mode                    : Variable
Bit rate                         : 4 000 Kbps
Maximum bit rate                 : 8 000 Kbps
Width                            : 1 280 pixels
Height                           : 544 pixels
Display aspect ratio             : 2.35:1
Frame rate                       : 23.976 fps
Standard                         : NTSC
Color space                      : YUV
Chroma subsampling               : 4:2:0
Bit depth                        : 8 bits
Scan type                        : Progressive
Bits/(Pixel*Frame)               : 0.240
Stream size                      : 2.93 GiB (88%)
Writing library                  : x264 core 114
Encoding settings                : cabac=1 / ref=3 / deblock=1:0:0 / analyse=0x3:0x113 / me=hex / subme=7 / psy=1 / psy_rd=1.00:0.00 / mixed_ref=1 / me_range=16 / chroma_me=1 / trellis=1 / 8x8dct=1 / cqm=2 / deadzone=21   ,   11 / fast_pskip=1 / chroma_qp_offset=-4 / threads=12 / sliced_threads=0 / slices=1 / nr=0 / decimate=1 / interlaced=0 / constrained_intra=0 / bframes=3 / b_pyramid=0 / b_adapt=1 / b_bias=0 / direct=1 / weightb=1 / open_gop=0 / weightp=2 / keyint=250 / keyint_min=23 / scenecut=40 / intra_refresh=0 / rc_lookahead=40 / rc=2pass / mbtree=1 / bitrate=4000 / ratetol=1.0 / qcomp=0.60 / qpmin=5 / qpmax=69 / qpstep=4 / cplxblur=20.0 / qblur=0.5 / vbv_maxrate=8000 / vbv_bufsize=7995 / nal_hrd=vbr / ip_ratio=1.40 / aq=1:1.00
Color primaries                  : BT.709-5   ,    BT.1361   ,    IEC 61966-2-4   ,    SMPTE RP177
Transfer characteristics         : BT.709-5   ,    BT.1361
Matrix coefficients              : BT.709-5   ,    BT.1361   ,    IEC 61966-2-4 709   ,    SMPTE RP177

Audio
ID                               : 2
Format                           : AC-3
Format/Info                      : Audio Coding 3
Mode extension                   : CM (complete main)
Codec ID                         : A_AC3
Duration                         : 1h 47mn
Bit rate mode                    : Constant
Bit rate                         : 448 Kbps
Channel(s)                       : 2 channels
Channel positions                : Front: L R
Sampling rate                    : 44.1 KHz
Bit depth                        : 16 bits
Compression mode                 : Lossy
Delay relative to video          : 35ms
Stream size                      : 345 MiB (10%)
Title                            : from vcd master
Language                         : Thai












จัดทำและนำเสนอโดย ซิ่วท้อ ฮก ลก ซิ่ว
เครดิตไฟล์  BY   ~nusom~  &  manu08  ขอบคุณครับ+

Visibleno (dead)
Typeภาพยนตร์ Hi-Def
FreeFree
Last seederLast activity 516d 18:31:49 ago
Size3.34 GB (3,582,485,615 bytes)
Rating
rating: 5.0 / 5 (5.0 out of 5 with 3 vote(s) total)        (Log in to rate it)
Added2012-08-27 21:37:23
Views557
Hits241
Snatched                    
อัพโหลดงานโดยOkey_Peeo

= แสดงน้ำใจต่อเจ้าของไฟล์ เพื่อสังคมแบ่งปันที่ดี =

โอนเงินให้ไฟล์นี้
อีวี่ * ค่าโอน 10 อีวี่
กรุณาใส่รหัสของคุณ
Peers
[See full list]
0 seeder(s), 0 leecher(s) = 0 peer(s) total