ดาวน์โหลด Friends Naki On The Monster Island 2013 720p HQ-CtHts.torrent

ใช้โปรแกรม uTorrent หรือ BitComet 0.70 เท่านั้น หากใช้เวอร์ชั่นอื่น ท่านจะไม่ได้ค่าอัพโหลด
Info hash0d6087fbd445764e69e03e620e92100ac2cd3790
Advertising....สมทบทุนช่วยเว็บ ตั้งแต่ 150 บาท ขึ้นไป ได้รับอายุ VIP X2 .... สนใจสมัครคลิ้ก
Picturehttp://pics.filmaffinity.com/Friends_Naki_on_the_Monster_Island-669278103-large.jpg
Description[Mini-hidef-dvd quality-Animation ] Friends Naki On The Monster Island 2013 720p [พากย์:th-Japanese][SUB:th]



Friends Naki On The Monster Island /ย. ยักษ์เพื่อนซี้แห่งเกาะปีศาจ 2013
เรื่องย่อ

เมื่อ 200 ปีก่อน มนุษย์ได้ขับไล่ปีศาจให้ไปอยู่ที่เกาะอีกฟากของโขดหินกลางน้ำ ที่นั่นจึงถูกเรียกขยาดว่า "เกาะปีศาจ" โคทาเกะเด็กน้อยชาวมนุษย์ได้พลัดหลงเข้ามาในเกาะปีศาจเพียง
ลำพังและได้ยักษ์แดงนากิกับยักษ์น้ำเงินกุนโจคอยดูแล ทีแรกนากิกับโคทาเกะเอาแต่ทะเลาะกัน แต่แล้วก็กลายมาเป็นเพื่อนกัน ทว่าโคทาเกะซึ่งยังเป็นแค่เด็กเกิดคิดถึงแม่ขึ้นมาพวก
นากิจึงพาโคทาเกะไปส่งที่หมู่บ้าน และเมื่อนากิอยากพบกับโคทาเกะอีกครั้ง เขาจึงไปหาที่หมู่บ้านของพวกมนุษย์ แต่ที่นั่นมนุษย์ซึ่งหวาดกลัวต่อปีศาจอยู่แล้วจึงได้จ้างนักพรตจอมขมัง
เวทย์ชื่อดังมาจัดการกับเขา..


Format                           : Matroska
File size                        : 3.07 GiB
Duration                         : 1h 27mn
Overall bit rate                 : 4 998 Kbps
Movie name                       : mFriends Naki On The Monster Island erged
Encoded date                     : UTC 2013-03-10 14:43:39
Writing application              : mkvmerge v3.4.0 ('Rapunzel') built on May 15 2010 09:38:20
Writing library                  : libebml v0.8.0 + libmatroska v0.9.0

Video
ID                               : 1
Format                           : AVC
Format/Info                      : Advanced Video Codec
Format profile                   : [email protected]
Format settings, CABAC           : Yes
Format settings, ReFrames        : 8 frames
Codec ID                         : V_MPEG4/ISO/AVC
Duration                         : 1h 27mn
Bit rate mode                    : Variable
Bit rate                         : 4 228 Kbps
Maximum bit rate                 : 2 000 Mbps
Width                            : 1 280 pixels
Height                           : 720 pixels
Display aspect ratio             : 16:9
Frame rate                       : 23.976 fps
Color space                      : YUV
Chroma subsampling               : 4:2:0
Bit depth                        : 8 bits
Scan type                        : Progressive
Bits/(Pixel*Frame)               : 0.191
Stream size                      : 2.53 GiB (83%)
Title                            : [Mini-hidef-dvd quality-Animation ] Friends Naki On The Monster Island (ย. ยักษ์เพื่อนซี้แห่งเกาะปีศาจ) 2013 720p HQ-CtHts
Writing library                  : x264 core 120 r2120 0c7dab9
Encoding settings                : cabac=1 / ref=8 / deblock=1:-1:-1 / analyse=0x3:0x133 / me=umh / subme=10 / psy=1 / psy_rd=1.00:0.15 / mixed_ref=1 / me_range=24 / chroma_me=1 / trellis=2 / 8x8dct=1 / cqm=0 / deadzone=21,11 / fast_pskip=1 / chroma_qp_offset=-3 / threads=9 / sliced_threads=0 / nr=0 / decimate=1 / interlaced=0 / bluray_compat=0 / constrained_intra=0 / bframes=3 / b_pyramid=0 / b_adapt=2 / b_bias=0 / direct=3 / weightb=1 / open_gop=0 / weightp=2 / keyint=240 / keyint_min=24 / scenecut=40 / intra_refresh=0 / rc_lookahead=60 / rc=2pass / mbtree=1 / bitrate=4228 / ratetol=1.0 / qcomp=0.60 / qpmin=0 / qpmax=69 / qpstep=4 / cplxblur=20.0 / qblur=0.5 / vbv_maxrate=2000000 / vbv_bufsize=2000000 / nal_hrd=vbr / ip_ratio=1.40 / aq=1:1.00
Language                         : Japanese

Audio #1
ID                               : 2
Format                           : AC-3
Format/Info                      : Audio Coding 3
Mode extension                   : CM (complete main)
Codec ID                         : A_AC3
Duration                         : 1h 27mn
Bit rate mode                    : Constant
Bit rate                         : 384 Kbps
Channel(s)                       : 6 channels
Channel positions                : Front: L C R, Side: L R, LFE
Sampling rate                    : 48.0 KHz
Bit depth                        : 16 bits
Compression mode                 : Lossy
Stream size                      : 241 MiB (8%)
Title                            : ac3 5.1 master
Language                         : Thai

Audio #2
ID                               : 3
Format                           : AC-3
Format/Info                      : Audio Coding 3
Mode extension                   : CM (complete main)
Codec ID                         : A_AC3
Duration                         : 1h 27mn
Bit rate mode                    : Constant
Bit rate                         : 384 Kbps
Channel(s)                       : 6 channels
Channel positions                : Front: L C R, Side: L R, LFE
Sampling rate                    : 48.0 KHz
Bit depth                        : 16 bits
Compression mode                 : Lossy
Stream size                      : 241 MiB (8%)
Title                            : ac3 5.1 master
Language                         : Japanese

Text
ID                               : 4
Format                           : VobSub
Muxing mode                      : zlib
Codec ID                         : S_VOBSUB
Codec ID/Info                    : The same subtitle format used on DVDs
Language                         : Thai
Visibleno (dead)
Typeภาพยนตร์ Hi-Def
FreeFree
Last seederLast activity 387d 05:57:40 ago
Size3.07 GB (3,292,079,454 bytes)
Rating
rating: 4.5 / 5 (4.5 out of 5 with 4 vote(s) total)        (Log in to rate it)
Added2013-03-11 08:54:29
Views883
Hits357
Snatched      aaa309aaa    RUNG085        bugharm   
อัพโหลดงานโดยnickinnickin Staffdonor

= แสดงน้ำใจต่อเจ้าของไฟล์ เพื่อสังคมแบ่งปันที่ดี =

โอนเงินให้ไฟล์นี้
อีวี่ * ค่าโอน 10 อีวี่
กรุณาใส่รหัสของคุณ
Num files
[See full list]
1 files
Peers
[See full list]
0 seeder(s), 0 leecher(s) = 0 peer(s) total